Blindspot S03E14

Posted By: Tavaz
SD / WEB-DL IMDb
Blindspot S03E14

Blindspot S03E14
WEB-DL | MKV | 720x404 | Italian | H264 @ 868 kbps | AAC @ 111 kbps | 41 min 8 s | 300 MiB
Subtitles: Italian
Genre: Azione, Crime, Dramma

Blindspot è una serie televisiva statunitense creata da Martin Gero con protagonisti Jaimie Alexander e Sullivan Stapleton. La serie è trasmessa sulla NBC dal 21 settembre 2015. Il 9 novembre 2015 la serie è stata rinnovata per una seconda stagione.
In Italia, la prima stagione è trasmessa in prima visione su Italia 1, ma il primo episodio è stato trasmesso in contemporanea anche su: Italia 2, Topcrime, La 5 e Mediaset Extra; il 10 maggio 2016, per poi proseguire con gli altri episodi solo sulla rete principale.

Blindspot.3x14.Everlasting.ITA.DLMux.x264-NovaRip.mkv (299.8 MB)



General
Unique ID : 30198087393571264869742057108544470494 (0x16B7F0A8EA70244CD59190A5044CBDDE)
Complete name : ./Blindspot.3x14.Everlasting.ITA.DLMux.x264-NovaRip.mkv
Format : Matroska
Format version : Version 2
File size : 300 MiB
Duration : 41 min 8 s
Overall bit rate : 1 019 kb/s
Encoded date : UTC 2018-07-04 14:40:22
Writing application : mkvmerge v8.5.2 ('Crosses') 64bit
Writing library : libebml v1.3.3 + libmatroska v1.4.4

Video
ID : 1
Format : AVC
Format/Info : Advanced Video Codec
Format profile : [email protected]
Format settings : CABAC / 6 Ref Frames
Format settings, CABAC : Yes
Format settings, RefFrames : 6 frames
Codec ID : V_MPEG4/ISO/AVC
Duration : 41 min 8 s
Bit rate : 868 kb/s
Width : 720 pixels
Height : 404 pixels
Display aspect ratio : 16:9
Frame rate mode : Constant
Frame rate : 25.000 FPS
Original frame rate : 23.976 (24000/1001) FPS
Color space : YUV
Chroma subsampling : 4:2:0
Bit depth : 8 bits
Scan type : Progressive
Bits/(Pixel*Frame) : 0.119
Stream size : 266 MiB (89%)
Writing library : x264 core 155 r2893 b00bcaf
Encoding settings : cabac=1 / ref=6 / deblock=1:-2:-2 / analyse=0x3:0x133 / me=umh / subme=7 / psy=1 / psy_rd=1.00:0.00 / mixed_ref=1 / me_range=16 / chroma_me=1 / trellis=2 / 8x8dct=1 / cqm=0 / deadzone=21,11 / fast_pskip=0 / chroma_qp_offset=-2 / threads=6 / lookahead_threads=1 / sliced_threads=0 / nr=0 / decimate=1 / interlaced=0 / bluray_compat=0 / constrained_intra=0 / bframes=5 / b_pyramid=2 / b_adapt=2 / b_bias=0 / direct=3 / weightb=1 / open_gop=0 / weightp=2 / keyint=250 / keyint_min=23 / scenecut=40 / intra_refresh=0 / rc_lookahead=40 / rc=2pass / mbtree=1 / bitrate=868 / ratetol=1.0 / qcomp=0.60 / qpmin=0 / qpmax=69 / qpstep=4 / cplxblur=20.0 / qblur=0.5 / ip_ratio=1.40 / aq=1:1.00
Language : English
Default : Yes
Forced : Yes

Audio
ID : 2
Format : AAC
Format/Info : Advanced Audio Codec
Format profile : LC
Codec ID : A_AAC-2
Duration : 41 min 7 s
Bit rate : 112 kb/s
Channel(s) : 2 channels
Channel positions : Front: L R
Sampling rate : 48.0 kHz
Frame rate : 46.875 FPS (1024 SPF)
Compression mode : Lossy
Delay relative to video : 9 ms
Stream size : 32.9 MiB (11%)
Title : ITA
Language : Italian
Default : Yes
Forced : Yes

Text
ID : 3
Format : UTF-8
Codec ID : S_TEXT/UTF8
Codec ID/Info : UTF-8 Plain Text
Duration : 3 s 200 ms
Bit rate : 37 b/s
Count of elements : 1
Stream size : 15.0 Bytes (0%)
Title : ITA - Forced
Language : Italian
Default : Yes
Forced : Yes





Blindspot S03E14


Blindspot S03E14


Blindspot S03E14


Blindspot S03E14


Blindspot S03E14

All episodes

SitemapBohemian Rhapsody | Instrumentos e acessórios de terapia de cera | Films 2017